#TITLE:U;
#SUBTITLE:;
#ARTIST:Super Junior M;
#TITLETRANSLIT:U;
#SUBTITLETRANSLIT:;
#ARTISTTRANSLIT:Super Junior M;
#CREDIT:;
#BANNER:U-bn.png;
#BACKGROUND:U-bg.png;
#LYRICSPATH:;
#CDTITLE:pm4cd.png;
#MUSIC:U .mp3;
#OFFSET:0.120;
#SAMPLESTART:51.909;
#SAMPLELENGTH:20.000;
#SELECTABLE:YES;
#BPMS:0.000=115.010,289.000=230.030,290.000=115.010,290.250=230.010,291.250=115.010,291.500=230.030,293.250=115.010,293.500=230.030,294.250=115.010,294.500=230.030,296.750=115.010,297.000=230.030,297.250=115.010,297.500=230.030,299.000=115.010,299.250=230.030,302.750=115.010,303.000=230.030,304.250=115.010,304.500=230.030,306.250=115.010,306.500=230.030,308.750=115.010,309.000=230.030,311.750=115.010,312.000=230.030,313.750=115.010,314.000=230.030,397.250=115.010,413.250=14.369,413.750=115.010;
#STOPS:;
#BGCHANGES:;
// cache tags:
#FIRSTBEAT:4.750;
#LASTBEAT:518.750;
#SONGFILENAME:Songs/Music V.I.P ^_^/U/U .sm;
#HASMUSIC:1;
#HASBANNER:1;
#MUSICLENGTH:248.249;
// end cache tags

//---------------dance-single - ----------------
#NOTES:
     dance-single:
     :
     Hard:
     11:
     0.934,1.000,1.000,0.213,1.000,1029.000,474.000,53.000,0.000,237.000:
0000
0000
0000
0000
,
0000
0000
0000
0110
0000
0000
0000
0000
0000
1001
0010
1100
0000
0000
0000
0000
,
0000
0000
0000
0101
0100
0000
0101
0000
0000
0101
0000
0101
0000
0000
0000
0110
,
0000
0101
0010
1001
0000
0000
0000
0000
0000
1010
0100
1001
0000
0000
0000
0000
,
0000
0000
0000
1101
1001
0000
1001
0000
0000
1001
0000
1001
0000
1100
0000
0011
,
0000
1100
0000
0111
0000
1000
0000
0100
0000
1000
0010
0101
0000
0010
0000
0001
,
0000
1100
0000
1010
0000
0100
0000
0001
0000
1100
0000
0110
0000
0001
0000
0010
,
0000
0100
0100
1010
0000
0100
0000
0010
0000
0011
0000
0110
0000
0001
0000
0010
,
0000
0100
0010
1100
0000
0110
0000
0010
0000
1010
0000
0101
0010
1100
0000
1001
,
0000
0010
0000
1011
0000
0100
0000
0001
0000
1000
0000
0110
0000
0001
0000
0100
,
0000
0101
0000
0101
0000
0010
0000
0100
0000
1100
0000
1001
0000
0100
0000
0010
,
0000
0001
0000
1010
0000
0100
0000
1000
0000
0110
0000
0101
0000
1000
0000
0100
,
0000
0010
0000
1100
0000
0001
0000
0010
0000
0011
0100
1001
0000
0110
0000
1001
,
0000
0110
0000
1111
0000
0001
0000
0010
0000
0100
0000
1001
0000
0100
0000
0010
,
0000
0101
0000
1010
0000
0100
0000
1000
0000
0011
0000
1100
0000
0010
0000
0001
,
0000
1000
0000
0101
0000
0010
0000
0001
0000
0110
0000
1001
0000
0100
0000
0010
,
0000
0001
0000
1010
0000
0101
0000
1010
0000
1100
0000
1001
1010
1100
0000
0110
,
0000
0001
0000
0021
0000
0100
0000
0001
0000
1000
0000
0101
0000
0100
0000
1000
,
0000
0101
0030
2001
0000
0100
0000
0010
0000
0011
0000
0101
0000
0010
0000
0001
,
0000
0100
3000
0012
0000
0100
0000
1000
0000
1010
0000
0110
0000
1000
0000
0100
,
0000
0010
0003
1200
0000
0010
0000
1000
0000
1001
0000
1010
0000
1001
0000
1010
,
0000
0001
0300
1021
0000
0000
0000
1000
0000
0000
0101
1001
0000
0000
0000
0001
,
0000
1100
0000
1230
0000
0000
0000
0010
0000
0011
0000
1001
0000
0000
0000
0010
,
0000
1000
0000
0321
0000
0000
0000
1000
0000
1100
0000
0101
0000
0000
0000
1000
,
0000
0000
0101
1031
0000
1001
0000
0110
0000
1001
0000
0110
1001
0000
1001
0110
,
0000
0100
0000
1111
0000
1000
0000
0101
0000
0010
0000
1001
0000
0010
0000
1000
,
0000
0101
0000
1001
0000
0100
0000
0001
0000
0101
0000
1010
0000
0010
0000
0101
,
0000
0010
0100
1002
0000
0010
0000
1000
0000
0110
0000
1010
0000
0100
0000
1000
,
0000
0010
0013
1200
0000
0010
0000
1000
0000
1001
0000
1010
0000
0011
0000
0010
,
0000
1000
0000
1311
0000
0001
0000
0001
0000
0100
0000
1010
0000
0100
0000
0010
,
0000
1100
0000
0011
0000
0100
0000
0010
0000
1100
0000
0110
0000
0001
0000
0010
,
0000
0100
1000
0201
0000
0010
0000
0001
0000
1010
0000
0011
0000
1000
0000
0001
,
0000
0010
0001
1320
0000
1100
0000
1000
0000
0101
0000
1001
0101
0101
0000
0001
,
0000
0100
0000
1131
0000
0100
0000
2000
0000
0011
0000
0101
0000
0010
0000
0001
,
0000
0010
0001
0110
0000
0001
0000
0010
0000
0101
3000
0120
0000
1000
0000
0100
,
0000
0001
1000
0101
0000
0100
0000
1000
0000
1001
0000
1031
0000
0002
0000
0100
,
0000
1000
0100
1010
0000
0100
0000
0010
0000
0110
0000
1100
0000
1013
0000
0101
,
0000
1010
0000
1001
0000
1000
0000
0001
0000
0010
0000
1100
0000
0010
0000
0100
,
0000
1100
0000
1100
0000
0001
0000
0010
0000
1010
0000
0101
0000
0010
0000
1000
,
0000
0100
0000
1001
0000
0010
0000
0100
0000
0011
0000
1100
0000
0010
0000
0001
,
0000
0100
0000
1001
0000
0010
0000
0100
0000
1001
0100
0011
0000
1010
0000
0101
,
0000
1010
0000
1111
0000
0001
0000
0100
0000
0010
0000
1100
0000
0001
0000
0010
,
0000
0110
0000
1100
0000
0010
0000
0001
0000
1001
0000
0110
0000
0010
0000
0001
,
0000
0010
0000
1100
0000
0001
0000
0010
0000
1100
0000
0011
0000
1000
0000
0100
,
0000
0001
0000
0110
0000
1001
0000
0110
0000
0101
0000
1001
0101
0011
0000
1001
,
0000
0100
0010
2001
0000
0100
0000
0001
0000
0010
0000
0011
0000
0001
0000
0010
,
0000
0110
3000
0021
0000
0100
0000
0001
0000
1001
0000
1100
0000
0100
0000
1000
,
0000
0100
0031
0210
0000
0001
0000
1000
0000
1001
0000
1010
0000
1000
0000
0001
,
0000
0010
0300
1002
0000
0010
0000
1000
0000
1100
0000
1010
0000
0110
0000
1100
,
0000
0100
0003
1021
0000
0000
0000
0001
0000
0000
1100
0101
0000
0000
0000
0001
,
0000
0101
0000
0231
0000
0000
0000
1000
0000
1001
0000
1010
0000
0000
0000
0001
,
0000
0010
0000
1320
0000
0000
0000
0001
0000
0101
0000
1100
0000
0000
0000
0001
,
0000
0000
1100
0131
0000
0011
0000
1100
0000
0011
0000
1100
0011
0000
0011
1100
,
0000
0010
0000
1111
0000
0010
0000
1100
0000
1000
0000
0101
0000
0001
0000
0010
,
0000
1100
0000
0011
0000
1000
0000
0001
0000
0011
0000
1001
0000
0100
0000
0101
,
0000
0100
0000
1200
0000
0001
0000
0010
0000
1010
0000
0011
0000
1000
0000
0001
,
0000
1000
1300
1002
0000
0010
0000
1000
0000
1100
0000
1010
0000
0110
0000
0100
,
0000
0010
0003
0111
0000
1000
0000
1000
0000
0001
0000
0011
0000
1000
0000
0100
,
0000
1001
0000
0110
0000
0001
0000
0100
0000
0101
0000
1010
0000
0100
0000
0010
,
0000
1000
0000
1200
0000
0001
0000
0010
0000
0011
0000
1010
0000
0001
0000
0010
,
0000
1000
0000
1320
0000
0101
0000
1000
0000
1001
0000
0101
1100
1100
0000
1000
,
0000
0001
0000
1131
0000
0100
0000
0001
0000
0010
0000
0101
0000
0010
0000
0001
,
0000
1100
0000
1100
0000
0010
0000
1000
0000
0101
0000
1100
0000
1000
0000
0010
,
0000
0001
1000
0101
0000
0100
0000
1000
0000
0110
0000
0110
0000
0001
0000
0100
,
0000
0001
0010
1100
0000
0001
0000
1000
0000
0101
0000
1010
0000
0011
0000
1100
,
0000
0001
0000
1111
0000
0010
0000
1100
0000
0001
0000
0101
0000
0100
0000
0010
,
0000
0110
0000
0011
0000
1000
0000
0010
0000
1100
0000
0011
0000
0001
0000
1010
,
0000
0001
0000
1020
0000
0100
0000
0001
0000
1100
0000
1001
0000
1000
0000
0001
,
0000
0001
0031
0201
0000
1000
0000
0010
0000
0011
0000
1001
0000
1010
0001
0010
,
1000
0010
0301
1111
0011
0011
0000
0110
0000
1100
0000
1100
0000
0010
0000
0101
,
0000
0010
0000
0011
0100
1001
0100
0011
0100
1001
0000
0101
0000
0010
0000
1000
,
0000
0100
0000
1010
0101
0011
0000
0100
0000
1010
0000
0110
0000
0001
0000
0010
,
0000
0100
0000
1011
0000
0000
0000
0000
1011
0000
0000
0000
0000
1011
0000
0000
,
0000
0000
0000
0000
0000
1101
0000
0000
0000
1101
0000
0000
0000
0000
0000
1101
,
0000
1101
0000
1101
0000
1110
0000
0000
0111
0000
0000
0000
0111
0000
0000
0000
,
0000
0000
0000
1101
0000
0000
0000
0001
0000
0000
0000
0011
0000
1000
0000
0010
,
0000
1001
0000
0000
0000
1101
0000
0000
0000
1101
0000
0010
0000
0000
0000
0000
,
0000
0000
0000
0000
0000
0000
0000
1011
0000
1011
0000
1011
0000
0000
0000
0100
,
0000
0000
0000
1110
0000
0000
0000
1110
0000
0000
0000
0100
0000
0000
0000
0100
,
0000
0000
0000
0000
0000
0010
0000
0100
0000
0010
0000
0100
0000
1000
0000
0100
,
0000
0010
0000
0100
0000
0010
0000
0001
0000
0010
0000
0100
0000
0010
0000
0100
,
0000
1000
0000
0100
0000
0011
0000
0011
0000
0011
0000
0000
0000
0000
0000
0000
,
0000
0010
0000
0010
0000
0101
0000
0000
0000
1010
0000
0000
0000
0101
0000
0010
,
0000
1010
0000
0000
0000
0101
0000
0000
0000
0010
0000
0000
0000
1000
0000
0010
,
0000
0100
0000
0010
0000
0100
0000
1000
0000
0100
0000
0010
0000
0100
0000
0010
,
0000
0001
0000
0010
0000
0100
0000
1000
0000
0100
0000
0010
0000
0001
0000
0000
,
0000
0010
0000
0100
0000
0010
0000
0001
0000
0010
0000
0100
0000
1000
0000
0100
,
0000
0000
0000
0000
0000
0101
0000
1010
0000
0000
0000
0000
0000
1000
0000
0001
,
0000
0010
0000
0100
0000
0010
0000
0100
0000
1000
0000
0010
0000
0100
0000
0010
,
0000
0001
0000
0010
0000
1001
0000
0010
0000
0100
0000
0010
0000
1001
0000
0100
,
0000
1000
0000
0010
0000
1001
0000
0010
0000
0100
0000
1000
0000
1001
0000
0100
,
0000
0001
0000
0010
0000
1001
0000
0000
0000
0100
0000
0010
0000
0100
0000
0000
,
0000
1000
0000
0001
0000
0000
0000
0010
0000
0100
0000
0010
0000
0001
0000
0000
,
0000
0010
0000
0100
0000
1000
0000
0100
0000
0010
0000
0001
0000
0010
0000
0000
,
0000
1000
0000
0010
0000
0000
0000
0001
0000
0010
0000
0100
0000
1000
0000
0000
,
0000
1000
0000
0100
0000
0010
0000
0001
0000
0010
0000
0100
0000
0010
0000
0000
,
0000
0000
0000
0000
0000
0010
0000
0100
0000
1000
0000
0001
0000
0000
0000
0000
,
0000
0001
0000
0100
0000
1000
0000
0010
0000
0100
0000
0010
0000
0100
0000
1000
,
0000
0100
0000
1000
0000
0100
0000
0010
0000
0001
0000
0010
0000
0001
0000
0010
,
0000
0100
0000
1000
0000
1021
0000
0000
0000
1000
0000
0001
0100
0000
0000
0100
,
0000
0100
1000
0000
0000
0231
0000
0000
0000
0010
0000
0001
0010
0000
0000
1000
,
1000
0010
0010
0000
0000
1320
0000
0000
0000
1000
0000
0000
0000
0000
0000
0100
,
0000
0000
0100
0000
0000
1032
0000
0000
0000
0000
0000
0000
0000
0000
0000
0000
,
0000
0000
0000
0000
0000
0000
0000
0000
0000
0000
0000
0000
0000
0000
0000
0000
0000
0000
0000
0000
1223
0000
0000
0000
0000
0000
1000
0001
1331
0000
0000
0000
0000
0000
0000
0000
1010
0000
0000
0000
0000
0000
0000
0000
1100
0000
0000
0000
0000
0000
0000
0000
0110
0000
0000
0000
0000
0000
0000
0000
1001
0000
0000
0000
,
0000
0101
0100
0011
0100
0101
0010
2201
0000
0000
0000
0010
0000
0000
0000
0011
,
0000
0000
0000
0010
0000
0000
0000
3322
0000
0100
1000
0100
1000
0100
0000
1100
,
0000
0000
0000
0100
0000
0000
0000
2233
0000
0000
0000
0001
0000
0010
0001
0011
,
0000
0000
0000
0000
0000
0000
0000
3322
0000
1000
0000
0000
1000
0000
0000
1000
,
0000
1100
0000
1100
0000
1100
1000
1133
0000
1001
0000
0110
0000
1100
0000
0101
,
0000
1001
0000
1010
0000
0110
0000
1001
0000
1100
0000
0101
0000
0011
0000
1001
,
0000
1010
0000
0101
0000
1010
0000
1001
0000
0011
0000
1100
0000
0011
0000
1100
,
0000
1001
0000
0101
0000
0110
0000
1001
0000
1001
0000
1100
0000
1001
0000
1001
,
0000
0101
0000
0011
0000
0110
0000
1012
0000
0110
0000
1010
0000
1100
0000
0110
,
0000
1010
0000
0110
0000
1100
0000
1023
0000
0101
0000
1001
0000
1100
0000
1001
,
0000
1100
0000
1001
0000
0101
0000
1230
0000
1001
0000
1010
0000
0011
0000
1010
,
0000
1001
0000
0011
0000
1001
0000
2310
0000
0101
0000
0110
0000
0011
0000
0101
,
0000
0101
0000
0011
0000
0110
0000
3111
0000
1001
0000
1110
0000
0110
0000
1011
,
0000
1100
0000
1101
0000
0101
0000
0111
0000
0110
0000
1110
0000
1001
0000
1011
,
0000
1100
0000
0111
0000
0011
0000
1110
0000
1001
0000
1101
0000
0110
0000
0111
,
0000
1010
0000
1011
0000
0101
0000
1110
0000
0011
0000
1101
0000
0011
0000
1011
,
1011
0000
0000
1101
0000
1110
0000
1011
0100
1000
0100
0021
1000
0001
0100
1001
,
0100
1000
0001
1100
0001
0100
1000
0101
1000
0001
0100
1001
0100
0001
0100
1001
,
0100
1000
0001
1100
0001
1000
0001
1230
0010
0001
1000
0011
1000
0010
0001
1010
,
0001
1000
0010
1001
0010
1000
0001
1310
0100
0012
0100
0010
1000
0100
1000
0010
,
0100
0010
0100
1000
0010
1000
0100
2013
0100
0010
0001
0110
0001
0010
0100
0011
,
0100
0001
0100
0011
0100
0001
0010
0101
0010
0100
0001
0110
0001
0010
0100
0011
,
0100
0001
0010
0101
0010
0100
0010
3102
0010
0100
1000
0110
1000
0010
0100
1010
,
0100
1000
0010
1100
0010
1000
0100
1010
0100
1000
0010
1100
0010
0100
1000
0010
,
1100
1100
0000
1113
0000
1011
0000
2221
0000
0000
0000
0001
0000
0000
0000
0001
,
0000
0000
0000
0001
0000
0000
0000
0001
0000
0000
0000
3330
0000
0000
0000
0000
;
